  0
SECTION
  2
HEADER
  9
$ACADVER
  1
AC1014
  9
$ACADMAINTVER
 70
     9
  9
$DWGCODEPAGE
  3
ANSI_1252
  9
$INSBASE
 10
0.0
 20
0.0
 30
0.0
  9
$EXTMIN
 10
3.720517184489407
 20
4.419505267555321
 30
0.0
  9
$EXTMAX
 10
8.768799672127961
 20
7.542987400100617
 30
0.0
  9
$LIMMIN
 10
0.0
 20
0.0
  9
$LIMMAX
 10
12.0
 20
9.0
  9
$ORTHOMODE
 70
     0
  9
$REGENMODE
 70
     1
  9
$FILLMODE
 70
     1
  9
$QTEXTMODE
 70
     0
  9
$MIRRTEXT
 70
     1
  9
$DRAGMODE
 70
     2
  9
$LTSCALE
 40
1.0
  9
$OSMODE
 70
     0
  9
$ATTMODE
 70
     1
  9
$TEXTSIZE
 40
0.2
  9
$TRACEWID
 40
0.05
  9
$TEXTSTYLE
  7
STANDARD
  9
$CLAYER
  8
0
  9
$CELTYPE
  6
BYLAYER
  9
$CECOLOR
 62
   256
  9
$CELTSCALE
 40
1.0
  9
$DELOBJ
 70
     1
  9
$DISPSILH
 70
     0
  9
$DIMSCALE
 40
1.0
  9
$DIMASZ
 40
0.18
  9
$DIMEXO
 40
0.0625
  9
$DIMDLI
 40
0.38
  9
$DIMRND
 40
0.0
  9
$DIMDLE
 40
0.0
  9
$DIMEXE
 40
0.18
  9
$DIMTP
 40
0.0
  9
$DIMTM
 40
0.0
  9
$DIMTXT
 40
0.18
  9
$DIMCEN
 40
0.09
  9
$DIMTSZ
 40
0.0
  9
$DIMTOL
 70
     0
  9
$DIMLIM
 70
     0
  9
$DIMTIH
 70
     1
  9
$DIMTOH
 70
     1
  9
$DIMSE1
 70
     0
  9
$DIMSE2
 70
     0
  9
$DIMTAD
 70
     0
  9
$DIMZIN
 70
     0
  9
$DIMBLK
  1

  9
$DIMASO
 70
     1
  9
$DIMSHO
 70
     1
  9
$DIMPOST
  1

  9
$DIMAPOST
  1

  9
$DIMALT
 70
     0
  9
$DIMALTD
 70
     2
  9
$DIMALTF
 40
25.4
  9
$DIMLFAC
 40
1.0
  9
$DIMTOFL
 70
     0
  9
$DIMTVP
 40
0.0
  9
$DIMTIX
 70
     0
  9
$DIMSOXD
 70
     0
  9
$DIMSAH
 70
     0
  9
$DIMBLK1
  1

  9
$DIMBLK2
  1

  9
$DIMSTYLE
  2
STANDARD
  9
$DIMCLRD
 70
     0
  9
$DIMCLRE
 70
     0
  9
$DIMCLRT
 70
     0
  9
$DIMTFAC
 40
1.0
  9
$DIMGAP
 40
0.09
  9
$DIMJUST
 70
     0
  9
$DIMSD1
 70
     0
  9
$DIMSD2
 70
     0
  9
$DIMTOLJ
 70
     1
  9
$DIMTZIN
 70
     0
  9
$DIMALTZ
 70
     0
  9
$DIMALTTZ
 70
     0
  9
$DIMFIT
 70
     3
  9
$DIMUPT
 70
     0
  9
$DIMUNIT
 70
     2
  9
$DIMDEC
 70
     2
  9
$DIMTDEC
 70
     2
  9
$DIMALTU
 70
     2
  9
$DIMALTTD
 70
     2
  9
$DIMTXSTY
  7
STANDARD
  9
$DIMAUNIT
 70
     0
  9
$LUNITS
 70
     2
  9
$LUPREC
 70
     4
  9
$SKETCHINC
 40
0.1
  9
$FILLETRAD
 40
0.5
  9
$AUNITS
 70
     0
  9
$AUPREC
 70
     0
  9
$MENU
  1
.
  9
$ELEVATION
 40
0.0
  9
$PELEVATION
 40
0.0
  9
$THICKNESS
 40
0.0
  9
$LIMCHECK
 70
     0
  9
$BLIPMODE
 70
     0
  9
$CHAMFERA
 40
0.5
  9
$CHAMFERB
 40
0.5
  9
$CHAMFERC
 40
1.0
  9
$CHAMFERD
 40
0.0
  9
$SKPOLY
 70
     0
  9
$TDCREATE
 40
2452346.560157986
  9
$TDUPDATE
 40
2452642.500125810
  9
$TDINDWG
 40
0.0031125000
  9
$TDUSRTIMER
 40
0.0031125000
  9
$USRTIMER
 70
     1
  9
$ANGBASE
 50
0.0
  9
$ANGDIR
 70
     0
  9
$PDMODE
 70
     0
  9
$PDSIZE
 40
0.0
  9
$PLINEWID
 40
0.0
  9
$COORDS
 70
     1
  9
$SPLFRAME
 70
     0
  9
$SPLINETYPE
 70
     6
  9
$SPLINESEGS
 70
     8
  9
$ATTDIA
 70
     1
  9
$ATTREQ
 70
     1
  9
$HANDLING
 70
-16383
  9
$HANDSEED
  5
308
  9
$SURFTAB1
 70
     6
  9
$SURFTAB2
 70
     6
  9
$SURFTYPE
 70
     6
  9
$SURFU
 70
     6
  9
$SURFV
 70
     6
  9
$UCSNAME
  2

  9
$UCSORG
 10
0.0
 20
0.0
 30
0.0
  9
$UCSXDIR
 10
1.0
 20
0.0
 30
0.0
  9
$UCSYDIR
 10
0.0
 20
1.0
 30
0.0
  9
$PUCSNAME
  2

  9
$PUCSORG
 10
0.0
 20
0.0
 30
0.0
  9
$PUCSXDIR
 10
1.0
 20
0.0
 30
0.0
  9
$PUCSYDIR
 10
0.0
 20
1.0
 30
0.0
  9
$USERI1
 70
     0
  9
$USERI2
 70
     0
  9
$USERI3
 70
     0
  9
$USERI4
 70
     0
  9
$USERI5
 70
     0
  9
$USERR1
 40
0.0
  9
$USERR2
 40
0.0
  9
$USERR3
 40
0.0
  9
$USERR4
 40
0.0
  9
$USERR5
 40
0.0
  9
$WORLDVIEW
 70
     1
  9
$SHADEDGE
 70
     3
  9
$SHADEDIF
 70
    70
  9
$TILEMODE
 70
     1
  9
$MAXACTVP
 70
    64
  9
$PINSBASE
 10
0.0
 20
0.0
 30
0.0
  9
$PLIMCHECK
 70
     0
  9
$PEXTMIN
 10
1.000000000000000E+20
 20
1.000000000000000E+20
 30
1.000000000000000E+20
  9
$PEXTMAX
 10
-1.000000000000000E+20
 20
-1.000000000000000E+20
 30
-1.000000000000000E+20
  9
$PLIMMIN
 10
0.0
 20
0.0
  9
$PLIMMAX
 10
12.0
 20
9.0
  9
$UNITMODE
 70
     0
  9
$VISRETAIN
 70
     1
  9
$PLINEGEN
 70
     0
  9
$PSLTSCALE
 70
     1
  9
$TREEDEPTH
 70
  3020
  9
$PICKSTYLE
 70
     1
  9
$CMLSTYLE
  2
STANDARD
  9
$CMLJUST
 70
     0
  9
$CMLSCALE
 40
1.0
  9
$PROXYGRAPHICS
 70
     1
  9
$MEASUREMENT
 70
     0
  0
ENDSEC
  0
SECTION
  2
CLASSES
  0
CLASS
  1
ACDBDICTIONARYWDFLT
  2
AcDbDictionaryWithDefault
  3
AutoCAD 2000
 90
        0
280
     0
281
     0
  0
CLASS
  1
ACDBPLACEHOLDER
  2
AcDbPlaceHolder
  3
AutoCAD 2000
 90
        0
280
     0
281
     0
  0
CLASS
  1
LAYOUT
  2
AcDbLayout
  3
AutoCAD 2000
 90
        0
280
     0
281
     0
  0
CLASS
  1
LONG_TRANSACTION
  2
AcDbLongTransaction
  3
AutoCAD 2000
 90
        0
280
     0
281
     0
  0
CLASS
  1
LWPOLYLINE
  2
AcDbPolyline
  3
AutoCAD 2000
 90
        0
280
     0
281
     1
  0
CLASS
  1
HATCH
  2
AcDbHatch
  3
AutoCAD 2000
 90
        0
280
     0
281
     1
  0
CLASS
  1
XRECORD
  2
AcDbXrecord
  3
AutoCAD 2000
 90
        0
280
     0
281
     0
  0
ENDSEC
  0
SECTION
  2
TABLES
  0
TABLE
  2
VPORT
  5
8
330
0
100
AcDbSymbolTable
 70
     4
  0
VPORT
  5
2E1
330
8
100
AcDbSymbolTableRecord
100
AcDbViewportTableRecord
  2
*ACTIVE
 70
     0
 10
0.0
 20
0.0
 11
1.0
 21
1.0
 12
6.889513348064094
 22
5.636251936187172
 13
0.0
 23
0.0
 14
0.5
 24
0.5
 15
0.5
 25
0.5
 16
0.0
 26
0.0
 36
1.0
 17
0.0
 27
0.0
 37
0.0
 40
9.937295982166817
 41
1.462515883100381
 42
50.0
 43
0.0
 44
0.0
 50
0.0
 51
0.0
 71
     0
 72
   100
 73
     1
 74
     3
 75
     0
 76
     0
 77
     0
 78
     0
  0
ENDTAB
  0
TABLE
  2
LTYPE
  5
5
330
0
100
AcDbSymbolTable
 70
     1
  0
LTYPE
  5
14
330
5
100
AcDbSymbolTableRecord
100
AcDbLinetypeTableRecord
  2
BYBLOCK
 70
     0
  3

 72
    65
 73
     0
 40
0.0
  0
LTYPE
  5
15
330
5
100
AcDbSymbolTableRecord
100
AcDbLinetypeTableRecord
  2
BYLAYER
 70
     0
  3

 72
    65
 73
     0
 40
0.0
  0
LTYPE
  5
16
330
5
100
AcDbSymbolTableRecord
100
AcDbLinetypeTableRecord
  2
CONTINUOUS
 70
     0
  3
Solid line
 72
    65
 73
     0
 40
0.0
  0
ENDTAB
  0
TABLE
  2
LAYER
  5
2
330
0
100
AcDbSymbolTable
 70
     4
  0
LAYER
  5
10
330
2
100
AcDbSymbolTableRecord
100
AcDbLayerTableRecord
  2
0
 70
     0
 62
     7
  6
CONTINUOUS
  0
LAYER
  5
34
330
2
100
AcDbSymbolTableRecord
100
AcDbLayerTableRecord
  2
L
 70
     0
 62
     7
  6
CONTINUOUS
  0
LAYER
  5
45
330
2
100
AcDbSymbolTableRecord
100
AcDbLayerTableRecord
  2
DEFPOINTS
 70
     0
 62
     7
  6
CONTINUOUS
  0
LAYER
  5
88
330
2
100
AcDbSymbolTableRecord
100
AcDbLayerTableRecord
  2
TX
 70
     0
 62
   150
  6
CONTINUOUS
  0
ENDTAB
  0
TABLE
  2
STYLE
  5
3
330
0
100
AcDbSymbolTable
 70
     3
  0
STYLE
  5
11
330
3
100
AcDbSymbolTableRecord
100
AcDbTextStyleTableRecord
  2
STANDARD
 70
     0
 40
0.0
 41
1.0
 50
0.0
 71
     0
 42
0.2
  3
txt
  4

  0
STYLE
  5
35
330
3
100
AcDbSymbolTableRecord
100
AcDbTextStyleTableRecord
  2
REG
 70
     0
 40
0.0
 41
1.0
 50
0.0
 71
     0
 42
0.09375
  3
E:\R13\com\fonts\ARCHITXT.SHX
  4

  0
STYLE
  5
36
330
3
100
AcDbSymbolTableRecord
100
AcDbTextStyleTableRecord
  2
DIMTXT
 70
     0
 40
0.0
 41
1.0
 50
0.0
 71
     0
 42
1.125
  3
archt.shx
  4

  0
ENDTAB
  0
TABLE
  2
VIEW
  5
6
330
0
100
AcDbSymbolTable
 70
     0
  0
ENDTAB
  0
TABLE
  2
UCS
  5
7
330
0
100
AcDbSymbolTable
 70
     0
  0
ENDTAB
  0
TABLE
  2
APPID
  5
9
330
0
100
AcDbSymbolTable
 70
     1
  0
APPID
  5
12
330
9
100
AcDbSymbolTableRecord
100
AcDbRegAppTableRecord
  2
ACAD
 70
     0
  0
ENDTAB
  0
TABLE
  2
DIMSTYLE
  5
A
330
0
100
AcDbSymbolTable
 70
    10
  0
DIMSTYLE
105
27
102
{ACAD_REACTORS
330
19B
330
1A9
102
}
330
A
100
AcDbSymbolTableRecord
100
AcDbDimStyleTableRecord
  2
STANDARD
 70
     0
  3

  4

  5

  6

  7

 40
1.0
 41
0.18
 42
0.0625
 43
0.38
 44
0.18
 45
0.0
 46
0.0
 47
0.0
 48
0.0
140
0.18
141
0.09
142
0.0
143
25.4
144
1.0
145
0.0
146
1.0
147
0.09
 71
     0
 72
     0
 73
     1
 74
     1
 75
     0
 76
     0
 77
     0
 78
     0
170
     0
171
     2
172
     0
173
     0
174
     0
175
     0
176
     0
177
     0
178
     0
270
     2
271
     2
272
     2
273
     2
274
     2
340
11
275
     0
280
     0
281
     0
282
     0
283
     1
284
     0
285
     0
286
     0
287
     3
288
     0
  0
DIMSTYLE
105
37
330
A
100
AcDbSymbolTableRecord
100
AcDbDimStyleTableRecord
  2
1
 70
     0
  3

  4

  5

  6

  7

 40
1.0
 41
1.125
 42
0.5
 43
0.375
 44
1.19921875
 45
0.0
 46
0.5
 47
0.0
 48
0.0
140
1.125
141
0.125
142
0.0
143
25.4
144
1.0
145
0.0
146
0.8
147
0.5625
 71
     0
 72
     0
 73
     0
 74
     0
 75
     0
 76
     0
 77
     1
 78
     3
170
     0
171
     2
172
     1
173
     0
174
     1
175
     0
176
   133
177
   133
178
   150
270
     2
271
     3
272
     3
273
     2
274
     2
340
36
275
     0
280
     0
281
     0
282
     0
283
     1
284
     0
285
     0
286
     0
287
     4
288
     0
  0
DIMSTYLE
105
38
330
A
100
AcDbSymbolTableRecord
100
AcDbDimStyleTableRecord
  2
1$2
 70
     0
  3

  4

  5
DOTSMALL
  6

  7

 40
1.0
 41
1.5
 42
0.5
 43
0.375
 44
1.19921875
 45
0.0
 46
0.5
 47
0.0
 48
0.0
140
0.75
141
0.125
142
0.0
143
25.4
144
1.0
145
0.0
146
0.8
147
0.5625
 71
     0
 72
     0
 73
     0
 74
     0
 75
     0
 76
     0
 77
     1
 78
     3
170
     0
171
     2
172
     1
173
     0
174
     1
175
     0
176
   133
177
   133
178
   150
270
     2
271
     3
272
     3
273
     2
274
     2
340
36
275
     0
280
     0
281
     0
282
     0
283
     1
284
     0
285
     0
286
     0
287
     4
288
     0
  0
DIMSTYLE
105
39
330
A
100
AcDbSymbolTableRecord
100
AcDbDimStyleTableRecord
  2
1$4
 70
     0
  3

  4

  5

  6

  7
DOTSMALL
 40
1.0
 41
1.5
 42
0.5
 43
0.375
 44
1.19921875
 45
0.0
 46
0.5
 47
0.0
 48
0.0
140
0.75
141
0.125
142
0.0
143
25.4
144
1.0
145
0.0
146
0.8
147
0.5625
 71
     0
 72
     0
 73
     0
 74
     0
 75
     0
 76
     0
 77
     1
 78
     3
170
     0
171
     2
172
     1
173
     1
174
     1
175
     0
176
   133
177
   133
178
   150
270
     2
271
     3
272
     3
273
     2
274
     2
340
36
275
     0
280
     0
281
     0
282
     0
283
     1
284
     0
285
     0
286
     0
287
     4
288
     0
  0
DIMSTYLE
105
3A
330
A
100
AcDbSymbolTableRecord
100
AcDbDimStyleTableRecord
  2
1$3
 70
     0
  3

  4

  5
DOTSMALL
  6

  7

 40
1.0
 41
1.5
 42
0.5
 43
0.375
 44
1.19921875
 45
0.0
 46
0.5
 47
0.0
 48
0.0
140
0.75
141
0.125
142
0.0
143
25.4
144
1.0
145
0.0
146
0.8
147
0.5625
 71
     0
 72
     0
 73
     0
 74
     0
 75
     0
 76
     0
 77
     1
 78
     3
170
     0
171
     2
172
     1
173
     0
174
     1
175
     0
176
   133
177
   133
178
   150
270
     2
271
     3
272
     3
273
     2
274
     2
340
36
275
     0
280
     0
281
     0
282
     0
283
     1
284
     0
285
     0
286
     0
287
     4
288
     0
  0
DIMSTYLE
105
3B
330
A
100
AcDbSymbolTableRecord
100
AcDbDimStyleTableRecord
  2
1$7
 70
     0
  3

  4

  5

  6

  7

 40
1.0
 41
1.0
 42
0.5
 43
0.375
 44
1.19921875
 45
0.0
 46
0.5
 47
0.0
 48
0.0
140
0.75
141
0.125
142
0.0
143
25.4
144
1.0
145
0.0
146
0.8
147
0.5625
 71
     0
 72
     0
 73
     0
 74
     0
 75
     0
 76
     0
 77
     1
 78
     3
170
     0
171
     2
172
     1
173
     0
174
     1
175
     0
176
   133
177
   133
178
   150
270
     2
271
     3
272
     3
273
     2
274
     2
340
36
275
     0
280
     0
281
     0
282
     0
283
     1
284
     0
285
     0
286
     0
287
     4
288
     0
  0
DIMSTYLE
105
B5
330
A
100
AcDbSymbolTableRecord
100
AcDbDimStyleTableRecord
  2
STANDARD$2
 70
     0
  3

  4

  5
DOTSMALL
  6

  7

 40
1.0
 41
1.5
 42
0.5
 43
0.375
 44
0.5
 45
0.0
 46
0.5
 47
0.0
 48
0.0
140
0.75
141
0.125
142
0.0
143
25.4
144
1.0
145
0.0
146
0.8
147
0.25
 71
     0
 72
     0
 73
     0
 74
     0
 75
     0
 76
     0
 77
     1
 78
     4
170
     0
171
     2
172
     1
173
     0
174
     1
175
     0
176
   133
177
   133
178
   150
270
     2
271
     3
272
     3
273
     2
274
     2
340
36
275
     0
280
     0
281
     0
282
     0
283
     1
284
     0
285
     0
286
     0
287
     3
288
     0
  0
DIMSTYLE
105
B6
330
A
100
AcDbSymbolTableRecord
100
AcDbDimStyleTableRecord
  2
STANDARD$4
 70
     0
  3

  4

  5

  6
DOTSMALL
  7
DOTSMALL
 40
1.0
 41
1.5
 42
0.5
 43
0.375
 44
0.5
 45
0.0
 46
0.5
 47
0.0
 48
0.0
140
0.75
141
0.125
142
0.0
143
25.4
144
1.0
145
0.0
146
0.8
147
0.25
 71
     0
 72
     0
 73
     1
 74
     1
 75
     0
 76
     0
 77
     0
 78
     4
170
     0
171
     2
172
     1
173
     1
174
     1
175
     0
176
   133
177
   133
178
   150
270
     2
271
     3
272
     3
273
     2
274
     2
340
36
275
     0
280
     0
281
     0
282
     0
283
     1
284
     0
285
     0
286
     0
287
     3
288
     1
  0
DIMSTYLE
105
B7
330
A
100
AcDbSymbolTableRecord
100
AcDbDimStyleTableRecord
  2
STANDARD$3
 70
     0
  3

  4

  5
DOTSMALL
  6

  7

 40
1.0
 41
1.5
 42
0.5
 43
0.375
 44
0.5
 45
0.0
 46
0.5
 47
0.0
 48
0.0
140
0.75
141
0.125
142
0.0
143
25.4
144
1.0
145
0.0
146
0.8
147
0.25
 71
     0
 72
     0
 73
     1
 74
     1
 75
     0
 76
     0
 77
     0
 78
     4
170
     0
171
     2
172
     1
173
     0
174
     1
175
     0
176
   133
177
   133
178
   150
270
     2
271
     3
272
     3
273
     2
274
     2
340
36
275
     0
280
     0
281
     0
282
     0
283
     1
284
     0
285
     0
286
     0
287
     3
288
     1
  0
DIMSTYLE
105
B8
330
A
100
AcDbSymbolTableRecord
100
AcDbDimStyleTableRecord
  2
STANDARD$7
 70
     0
  3

  4

  5
DOTSMALL
  6

  7

 40
1.0
 41
1.5
 42
0.5
 43
0.375
 44
0.5
 45
0.0
 46
0.5
 47
0.0
 48
0.0
140
0.75
141
0.125
142
0.0
143
25.4
144
1.0
145
0.0
146
0.8
147
0.25
 71
     0
 72
     0
 73
     0
 74
     0
 75
     0
 76
     0
 77
     1
 78
     4
170
     0
171
     2
172
     1
173
     0
174
     1
175
     0
176
   133
177
   133
178
   150
270
     2
271
     3
272
     3
273
     2
274
     2
340
36
275
     0
280
     0
281
     0
282
     0
283
     1
284
     0
285
     0
286
     0
287
     3
288
     0
  0
ENDTAB
  0
TABLE
  2
BLOCK_RECORD
  5
1
330
0
100
AcDbSymbolTable
 70
     5
  0
BLOCK_RECORD
  5
1F
102
{ACAD_XDICTIONARY
360
304
102
}
330
1
100
AcDbSymbolTableRecord
100
AcDbBlockTableRecord
  2
*MODEL_SPACE
  0
BLOCK_RECORD
  5
1B
102
{ACAD_XDICTIONARY
360
302
102
}
330
1
100
AcDbSymbolTableRecord
100
AcDbBlockTableRecord
  2
*PAPER_SPACE
  0
BLOCK_RECORD
  5
2B
330
1
100
AcDbSymbolTableRecord
100
AcDbBlockTableRecord
  2
_DOT
  0
BLOCK_RECORD
  5
30
330
1
100
AcDbSymbolTableRecord
100
AcDbBlockTableRecord
  2
_DOTSMALL
  0
BLOCK_RECORD
  5
19C
330
1
100
AcDbSymbolTableRecord
100
AcDbBlockTableRecord
  2
*D3
  0
BLOCK_RECORD
  5
1AA
330
1
100
AcDbSymbolTableRecord
100
AcDbBlockTableRecord
  2
*D4
  0
ENDTAB
  0
ENDSEC
  0
SECTION
  2
BLOCKS
  0
BLOCK
  5
20
330
1F
100
AcDbEntity
  8
0
100
AcDbBlockBegin
  2
*MODEL_SPACE
 70
     0
 10
0.0
 20
0.0
 30
0.0
  3
*MODEL_SPACE
  1

  0
ENDBLK
  5
21
330
1F
100
AcDbEntity
  8
0
100
AcDbBlockEnd
  0
BLOCK
  5
1C
330
1B
100
AcDbEntity
 67
     1
  8
0
100
AcDbBlockBegin
  2
*PAPER_SPACE
 70
     0
 10
0.0
 20
0.0
 30
0.0
  3
*PAPER_SPACE
  1

  0
ENDBLK
  5
1D
330
1B
100
AcDbEntity
 67
     1
  8
0
100
AcDbBlockEnd
  0
BLOCK
  5
2E
330
2B
100
AcDbEntity
  8
0
100
AcDbBlockBegin
  2
_DOT
 70
     0
 10
0.0
 20
0.0
 30
0.0
  3
_DOT
  1

  0
LWPOLYLINE
  5
2C
330
2B
100
AcDbEntity
  8
L
 62
     0
100
AcDbPolyline
 90
        2
 70
     1
 43
0.5
 10
-0.25
 20
0.0
 42
1.0
 10
0.25
 20
0.0
 42
1.0
  0
LINE
  5
2D
330
2B
100
AcDbEntity
  8
L
 62
     0
100
AcDbLine
 10
-0.5
 20
0.0
 30
0.0
 11
-1.0
 21
0.0
 31
0.0
  0
ENDBLK
  5
2F
330
2B
100
AcDbEntity
  8
0
100
AcDbBlockEnd
  0
BLOCK
  5
32
330
30
100
AcDbEntity
  8
0
 48
0.116666
100
AcDbBlockBegin
  2
_DOTSMALL
 70
     0
 10
0.0
 20
0.0
 30
0.0
  3
_DOTSMALL
  1

  0
LWPOLYLINE
  5
31
330
30
100
AcDbEntity
  8
0
  6
BYBLOCK
 62
     0
100
AcDbPolyline
 90
        2
 70
     1
 43
0.5
 10
-0.0625
 20
0.0
 42
1.0
 10
0.0625
 20
0.0
 42
1.0
  0
ENDBLK
  5
33
330
30
100
AcDbEntity
  8
0
 48
0.116666
100
AcDbBlockEnd
  0
BLOCK
  5
1A7
330
19C
100
AcDbEntity
  8
0
100
AcDbBlockBegin
  2
*D3
 70
     1
 10
0.0
 20
0.0
 30
0.0
  3
*D3
  1

  0
LINE
  5
19D
330
19C
100
AcDbEntity
  8
0
 62
     0
100
AcDbLine
 10
5.176049390038059
 20
6.901723324397629
 30
0.0
 11
3.780517184489407
 21
6.901723324397629
 31
0.0
  0
LINE
  5
19E
330
19C
100
AcDbEntity
  8
0
 62
     0
100
AcDbLine
 10
7.981049390038349
 20
5.441723324398502
 30
0.0
 11
3.780517184489407
 21
5.441723324398503
 31
0.0
  0
LINE
  5
19F
330
19C
100
AcDbEntity
  8
0
 62
     0
100
AcDbLine
 10
3.960517184489408
 20
6.721723324397629
 30
0.0
 11
3.960517184489408
 21
6.351723324398066
 31
0.0
  0
LINE
  5
1A0
330
19C
100
AcDbEntity
  8
0
 62
     0
100
AcDbLine
 10
3.960517184489408
 20
5.621723324398502
 30
0.0
 11
3.960517184489408
 21
5.991723324398066
 31
0.0
  0
SOLID
  5
1A1
330
19C
100
AcDbEntity
  8
0
 62
     0
100
AcDbTrace
 10
3.930517184489408
 20
6.721723324397629
 30
0.0
 11
3.990517184489407
 21
6.721723324397629
 31
0.0
 12
3.960517184489408
 22
6.901723324397629
 32
0.0
 13
3.960517184489408
 23
6.901723324397629
 33
0.0
  0
SOLID
  5
1A2
330
19C
100
AcDbEntity
  8
0
 62
     0
100
AcDbTrace
 10
3.930517184489408
 20
5.621723324398502
 30
0.0
 11
3.990517184489407
 21
5.621723324398502
 31
0.0
 12
3.960517184489408
 22
5.441723324398503
 32
0.0
 13
3.960517184489408
 23
5.441723324398503
 33
0.0
  0
MTEXT
  5
1A3
330
19C
100
AcDbEntity
  8
0
 62
     0
100
AcDbMText
 10
3.960517184489407
 20
6.171723324398067
 30
0.0
 40
0.18
 41
0.0
 71
     5
 72
     1
  1
\A1;1.46
1001
ACAD
1000
MTEXTBEGIN
1070
    73
1070
     1
1070
    44
1040
1.0
1070
    74
1070
     0
1000
MTEXTEND
  0
POINT
  5
1A4
330
19C
100
AcDbEntity
  8
DEFPOINTS
 62
     0
100
AcDbPoint
 10
5.238549390038059
 20
6.901723324397629
 30
0.0
  0
POINT
  5
1A5
330
19C
100
AcDbEntity
  8
DEFPOINTS
 62
     0
100
AcDbPoint
 10
8.04354939003835
 20
5.441723324398502
 30
0.0
  0
POINT
  5
1A6
330
19C
100
AcDbEntity
  8
DEFPOINTS
 62
     0
100
AcDbPoint
 10
3.960517184489408
 20
5.441723324398503
 30
0.0
  0
ENDBLK
  5
1A8
330
19C
100
AcDbEntity
  8
0
100
AcDbBlockEnd
  0
BLOCK
  5
1B5
330
1AA
100
AcDbEntity
  8
0
100
AcDbBlockBegin
  2
*D4
 70
     1
 10
0.0
 20
0.0
 30
0.0
  3
*D4
  1

  0
LINE
  5
1AB
330
1AA
100
AcDbEntity
  8
0
 62
     0
100
AcDbLine
 10
4.638549390037695
 20
6.889223324400539
 30
0.0
 11
4.638549390037695
 21
7.542987400100617
 31
0.0
  0
LINE
  5
1AC
330
1AA
100
AcDbEntity
  8
0
 62
     0
100
AcDbLine
 10
8.658549390038132
 20
6.889223324400539
 30
0.0
 11
8.658549390038132
 21
7.542987400100617
 31
0.0
  0
LINE
  5
1AD
330
1AA
100
AcDbEntity
  8
0
 62
     0
100
AcDbLine
 10
4.818549390037695
 20
7.362987400100617
 30
0.0
 11
6.303549390037914
 21
7.362987400100617
 31
0.0
  0
LINE
  5
1AE
330
1AA
100
AcDbEntity
  8
0
 62
     0
100
AcDbLine
 10
8.478549390038132
 20
7.362987400100617
 30
0.0
 11
6.993549390037913
 21
7.362987400100617
 31
0.0
  0
SOLID
  5
1AF
330
1AA
100
AcDbEntity
  8
0
 62
     0
100
AcDbTrace
 10
4.818549390037695
 20
7.392987400100618
 30
0.0
 11
4.818549390037695
 21
7.332987400100617
 31
0.0
 12
4.638549390037695
 22
7.362987400100617
 32
0.0
 13
4.638549390037695
 23
7.362987400100617
 33
0.0
  0
SOLID
  5
1B0
330
1AA
100
AcDbEntity
  8
0
 62
     0
100
AcDbTrace
 10
8.478549390038132
 20
7.392987400100618
 30
0.0
 11
8.478549390038132
 21
7.332987400100617
 31
0.0
 12
8.658549390038132
 22
7.362987400100617
 32
0.0
 13
8.658549390038132
 23
7.362987400100617
 33
0.0
  0
MTEXT
  5
1B1
330
1AA
100
AcDbEntity
  8
0
 62
     0
100
AcDbMText
 10
6.648549390037914
 20
7.362987400100617
 30
0.0
 40
0.18
 41
0.0
 71
     5
 72
     1
  1
\A1;4.02
1001
ACAD
1000
MTEXTBEGIN
1070
    73
1070
     1
1070
    44
1040
1.0
1070
    74
1070
     0
1000
MTEXTEND
  0
POINT
  5
1B2
330
1AA
100
AcDbEntity
  8
DEFPOINTS
 62
     0
100
AcDbPoint
 10
4.638549390037695
 20
6.826723324400539
 30
0.0
  0
POINT
  5
1B3
330
1AA
100
AcDbEntity
  8
DEFPOINTS
 62
     0
100
AcDbPoint
 10
8.658549390038132
 20
6.826723324400539
 30
0.0
  0
POINT
  5
1B4
330
1AA
100
AcDbEntity
  8
DEFPOINTS
 62
     0
100
AcDbPoint
 10
8.658549390038132
 20
7.362987400100617
 30
0.0
  0
ENDBLK
  5
1B6
330
1AA
100
AcDbEntity
  8
0
100
AcDbBlockEnd
  0
ENDSEC
  0
SECTION
  2
ENTITIES
  0
LWPOLYLINE
  5
C1
330
1F
100
AcDbEntity
  8
L
 62
     5
 48
0.116666
100
AcDbPolyline
 90
        2
 70
     0
 43
0.028125
 10
4.276871870403802
 20
4.610223868856994
 10
8.768799672127961
 20
4.610223868856994
  0
TEXT
  5
C2
330
1F
100
AcDbEntity
  8
L
 62
     3
 48
0.116666
100
AcDbText
 10
4.370607713084901
 20
4.703959711537979
 30
0.0
 40
0.140625
  1
MEDIUM DOUBLE FACE FILLER #2036
  7
REG
100
AcDbText
  0
TEXT
  5
C3
330
1F
100
AcDbEntity
  8
TX
 48
0.116666
100
AcDbText
 10
4.370607713084901
 20
4.422738026176009
 30
0.0
 40
0.09375
  1
SCALE : 1" = 1"
  7
REG
 11
4.370607713084901
 21
4.516488026176009
 31
0.0
100
AcDbText
 73
     3
  0
DIMENSION
  5
19B
330
1F
100
AcDbEntity
  8
0
100
AcDbDimension
  2
*D3
 10
3.960517184489408
 20
5.441723324398503
 30
0.0
 11
3.960517184489407
 21
6.171723324398067
 31
0.0
 70
    32
  3
STANDARD
100
AcDbAlignedDimension
 13
5.238549390038059
 23
6.901723324397629
 33
0.0
 14
8.04354939003835
 24
5.441723324398502
 34
0.0
 50
90.0
100
AcDbRotatedDimension
  0
DIMENSION
  5
1A9
330
1F
100
AcDbEntity
  8
0
100
AcDbDimension
  2
*D4
 10
8.658549390038132
 20
7.362987400100617
 30
0.0
 11
6.648549390037914
 21
7.362987400100617
 31
0.0
 70
    32
  3
STANDARD
100
AcDbAlignedDimension
 13
4.638549390037695
 23
6.826723324400539
 33
0.0
 14
8.658549390038132
 24
6.826723324400539
 34
0.0
100
AcDbRotatedDimension
  0
LWPOLYLINE
  5
228
330
1F
100
AcDbEntity
  8
L
 62
     5
100
AcDbPolyline
 90
      107
 70
     1
 43
0.0
 10
8.113549390038059
 20
5.576723324400539
 10
7.378549390037477
 20
5.576723324400539
 42
-0.4142135623997336
 10
7.35854939003704
 20
5.596723324397338
 10
7.35854939003704
 20
5.636723324398211
 42
-0.4142135623730951
 10
7.378549390037477
 20
5.656723324398647
 10
7.973549390036822
 20
5.656723324398647
 42
0.4142135623730948
 10
7.988549390038059
 20
5.671723324398065
 10
7.988549390038059
 20
6.446723324399521
 42
0.4142135623730951
 10
7.973549390036822
 20
6.461723324398938
 10
7.938549390036968
 20
6.461723324398938
 42
-0.4142135623730951
 10
7.91854939003835
 20
6.481723324399375
 10
7.91854939003835
 20
6.491723324397774
 42
-0.4142135623464566
 10
7.938549390036968
 20
6.511723324398211
 10
7.988549390038059
 20
6.511723324398211
 10
7.988549390038059
 20
6.776723324397629
 10
7.890735625460109
 20
6.776723324397655
 42
-0.3779644424429667
 10
7.870892524602497
 20
6.794223326523946
 42
0.3779644424357301
 10
7.851049390037331
 20
6.811723324401121
 10
5.446049390038496
 20
6.811723324401081
 42
0.3779644424353034
 10
5.426206289181057
 20
6.794223322274782
 42
-0.3779644424462364
 10
5.406363154615718
 20
6.776723324397629
 10
5.308549390037768
 20
6.776723324397629
 10
5.308549390037768
 20
6.511723324398211
 10
5.35854939003704
 20
6.511723324398211
 42
-0.4142135623730951
 10
5.378549390037477
 20
6.491723324397774
 10
5.378549390037477
 20
6.481723324399375
 42
-0.4142135623730951
 10
5.35854939003704
 20
6.461723324398938
 10
5.323549390037186
 20
6.461723324398938
 42
0.4142135624086131
 10
5.308549390037768
 20
6.446723324399521
 10
5.308549390037768
 20
6.071723324399521
 10
5.29854939003755
 20
6.061723324397483
 10
5.308549390037768
 20
6.051723324399084
 10
5.308549390037768
 20
5.676723324399084
 42
0.4142135623730951
 10
5.328549390036386
 20
5.656723324398647
 10
5.918549390036531
 20
5.656723324398647
 42
-0.4142135623730951
 10
5.938549390036968
 20
5.636723324398211
 10
5.938549390036968
 20
5.596723324397338
 42
-0.4142135623730951
 10
5.918549390036531
 20
5.576723324400539
 10
4.658549390036313
 20
5.576723324400539
 42
-0.4142135623997336
 10
4.638549390037695
 20
5.596723324397338
 10
4.638549390037695
 20
5.626723324399812
 42
-0.4142135624263722
 10
4.658549390036313
 20
5.646723324400248
 10
5.058549390037768
 20
5.646723324400248
 10
5.058549390037768
 20
5.696723324399521
 42
-0.4142135623730951
 10
5.078549390036386
 20
5.716723324399957
 10
5.088549390036604
 20
5.716723324399957
 42
-0.4142135623730951
 10
5.10854939003704
 20
5.696723324399521
 10
5.10854939003704
 20
5.646723324400248
 10
5.238549390038059
 20
5.646723324400248
 10
5.238549390038059
 20
6.776723324397629
 10
5.10854939003704
 20
6.776723324397629
 10
5.10854939003704
 20
6.736723324400394
 42
-0.4142135623730951
 10
5.088549390036604
 20
6.716723324399957
 10
4.928549390036749
 20
6.716723324399957
 42
-0.4142135623730951
 10
4.908549390036313
 20
6.736723324400394
 10
4.908549390036313
 20
6.776723324397629
 10
4.658549390036313
 20
6.776723324397629
 42
-0.4142135623730951
 10
4.638549390037695
 20
6.796723324398065
 10
4.638549390037695
 20
6.826723324400539
 42
-0.414213562426372
 10
4.658549390036313
 20
6.846723324397338
 10
4.933549390037768
 20
6.846723324397338
 42
0.4142135623730951
 10
4.953549390036386
 20
6.826723324400539
 10
4.993549390037259
 20
6.826723324400539
 10
5.008549390036677
 20
6.811723324397483
 10
5.023549390037914
 20
6.826723324400539
 10
5.063549390036968
 20
6.826723324400539
 42
0.4142135623997336
 10
5.083549390037404
 20
6.846723324397338
 10
5.238549390038059
 20
6.846723324397338
 10
5.238549390038059
 20
6.901723324397629
 10
8.058549390037768
 20
6.901723324397629
 10
8.058549390037768
 20
6.846723324397338
 10
8.213549390038423
 20
6.846723324397338
 42
0.4142135623997336
 10
8.23354939003704
 20
6.826723324400539
 10
8.273549390037914
 20
6.826723324400539
 10
8.288549390037331
 20
6.811723324397483
 10
8.303549390036749
 20
6.826723324400539
 10
8.343549390037622
 20
6.826723324400539
 42
0.4142135623997336
 10
8.363549390038059
 20
6.846723324397338
 10
8.638549390037695
 20
6.846723324397338
 42
-0.4142135623464566
 10
8.658549390038132
 20
6.826723324400539
 10
8.658549390038132
 20
6.796723324398065
 42
-0.4142135623730951
 10
8.638549390037695
 20
6.776723324397629
 10
8.388549390037695
 20
6.776723324397629
 10
8.388549390037695
 20
6.736723324400394
 42
-0.4142135623730951
 10
8.368549390037259
 20
6.716723324399957
 10
8.208549390037404
 20
6.716723324399957
 42
-0.4142135623730951
 10
8.188549390036968
 20
6.736723324400394
 10
8.188549390036968
 20
6.776723324397629
 10
8.058549390037768
 20
6.776723324397629
 10
8.058549390037768
 20
5.656723324398647
 10
8.188549390036968
 20
5.656723324398647
 10
8.188549390036968
 20
5.70672332439792
 42
-0.4142135623730951
 10
8.208549390037404
 20
5.726723324398356
 10
8.218549390037622
 20
5.726723324398356
 42
-0.4142135623730951
 10
8.238549390038059
 20
5.70672332439792
 10
8.238549390038059
 20
5.656723324398647
 10
8.638549390037695
 20
5.656723324398647
 42
-0.4142135623730951
 10
8.658549390038132
 20
5.636723324398211
 10
8.658549390038132
 20
5.591723324399957
 42
-0.4142135623730948
 10
8.643549390036895
 20
5.576723324400539
 10
8.183549390037768
 20
5.576723324400539
 10
8.183549390037768
 20
5.441723324398502
 10
8.04354939003835
 20
5.441723324398502
 42
-0.4142135623730951
 10
8.023549390037914
 20
5.461723324398938
 10
8.023549390037914
 20
5.491723324397774
 42
-0.4142135623730951
 10
8.04354939003835
 20
5.511723324398211
 10
8.113549390038059
 20
5.511723324398211
  0
ENDSEC
  0
SECTION
  2
OBJECTS
  0
DICTIONARY
  5
C
330
0
100
AcDbDictionary
  3
ACAD_GROUP
350
D
  3
ACAD_LAYOUT
350
1A
  3
ACAD_MLINESTYLE
350
17
  3
ACAD_PLOTSETTINGS
350
19
  3
ACAD_PLOTSTYLENAME
350
E
  3
ACDBHEADERROUNDTRIPXREC
350
2E2
  0
DICTIONARY
  5
304
330
1F
100
AcDbDictionary
280
     1
  3
ACAD_LAYOUTSELFREF
360
305
  0
DICTIONARY
  5
302
330
1B
100
AcDbDictionary
280
     1
  3
ACAD_LAYOUTSELFREF
360
303
  0
DICTIONARY
  5
D
102
{ACAD_REACTORS
330
C
102
}
330
C
100
AcDbDictionary
  0
DICTIONARY
  5
1A
102
{ACAD_REACTORS
330
C
102
}
330
C
100
AcDbDictionary
  0
DICTIONARY
  5
17
102
{ACAD_REACTORS
330
C
102
}
330
C
100
AcDbDictionary
  3
STANDARD
350
18
  0
DICTIONARY
  5
19
102
{ACAD_REACTORS
330
C
102
}
330
C
100
AcDbDictionary
  0
ACDBDICTIONARYWDFLT
  5
E
102
{ACAD_REACTORS
330
C
102
}
330
C
100
AcDbDictionary
281
     1
  3
Normal
350
F
100
AcDbDictionaryWithDefault
340
F
  0
DICTIONARY
  5
2E2
102
{ACAD_REACTORS
330
C
102
}
330
C
100
AcDbDictionary
  3
CEPSNTYPE
350
2EC
  3
FINGERPRINTGUID
350
2ED
  3
HYPERLINKBASE
350
2E5
  3
INSUNITS
350
2EB
  3
LAYOUTDICT
350
2E7
  3
LWETCUNION
350
2EA
  3
PLOTSETDICT
350
2E8
  3
PLOTSTYLNAMDICT
350
2E9
  3
PSVPSCALE
350
2EF
  3
PUCSBASE
350
2F2
  3
PUCSORGBACK
350
2F8
  3
PUCSORGBOTTOM
350
2F4
  3
PUCSORGFRONT
350
2F7
  3
PUCSORGLEFT
350
2F5
  3
PUCSORGRIGHT
350
2F6
  3
PUCSORGTOP
350
2F3
  3
PUCSORTHOREF
350
2F0
  3
PUCSORTHOVIEW
350
2F1
  3
STYLESHEET
350
2E6
  3
TSTACKALIGN
350
2E3
  3
TSTACKSIZE
350
2E4
  3
UCSBASE
350
2FB
  3
UCSORGBACK
350
301
  3
UCSORGBOTTOM
350
2FD
  3
UCSORGFRONT
350
300
  3
UCSORGLEFT
350
2FE
  3
UCSORGRIGHT
350
2FF
  3
UCSORGTOP
350
2FC
  3
UCSORTHOREF
350
2F9
  3
UCSORTHOVIEW
350
2FA
  3
VERSIONGUID
350
2EE
  0
XRECORD
  5
305
102
{ACAD_REACTORS
330
304
102
}
330
304
100
AcDbXrecord
340
1F
  0
XRECORD
  5
303
102
{ACAD_REACTORS
330
302
102
}
330
302
100
AcDbXrecord
340
1B
  0
MLINESTYLE
  5
18
102
{ACAD_REACTORS
330
17
102
}
330
17
100
AcDbMlineStyle
  2
STANDARD
 70
     0
  3

 62
   256
 51
90.0
 52
90.0
 71
     2
 49
0.5
 62
   256
  6
BYLAYER
 49
-0.5
 62
   256
  6
BYLAYER
  0
ACDBPLACEHOLDER
  5
F
102
{ACAD_REACTORS
330
E
102
}
330
E
100
AcDbPlaceHolder
280
     0
  0
XRECORD
  5
2EC
102
{ACAD_REACTORS
330
2E2
102
}
330
2E2
100
AcDbXrecord
 90
        0
  0
XRECORD
  5
2ED
102
{ACAD_REACTORS
330
2E2
102
}
330
2E2
100
AcDbXrecord
  1
{DC175E3D-AE85-11D5-9A93-0040C77E826B}
  0
XRECORD
  5
2E5
102
{ACAD_REACTORS
330
2E2
102
}
330
2E2
100
AcDbXrecord
  1

  0
XRECORD
  5
2EB
102
{ACAD_REACTORS
330
2E2
102
}
330
2E2
100
AcDbXrecord
 90
        1
  0
XRECORD
  5
2E7
102
{ACAD_REACTORS
330
2E2
102
}
330
2E2
100
AcDbXrecord
340
1A
  0
XRECORD
  5
2EA
102
{ACAD_REACTORS
330
2E2
102
}
330
2E2
100
AcDbXrecord
 90
    10781
  0
XRECORD
  5
2E8
102
{ACAD_REACTORS
330
2E2
102
}
330
2E2
100
AcDbXrecord
340
19
  0
XRECORD
  5
2E9
102
{ACAD_REACTORS
330
2E2
102
}
330
2E2
100
AcDbXrecord
340
E
  0
XRECORD
  5
2EF
102
{ACAD_REACTORS
330
2E2
102
}
330
2E2
100
AcDbXrecord
 40
0.0
  0
XRECORD
  5
2F2
102
{ACAD_REACTORS
330
2E2
102
}
330
2E2
100
AcDbXrecord
340
0
  0
XRECORD
  5
2F8
102
{ACAD_REACTORS
330
2E2
102
}
330
2E2
100
AcDbXrecord
 10
0.0
 20
0.0
 30
0.0
  0
XRECORD
  5
2F4
102
{ACAD_REACTORS
330
2E2
102
}
330
2E2
100
AcDbXrecord
 10
0.0
 20
0.0
 30
0.0
  0
XRECORD
  5
2F7
102
{ACAD_REACTORS
330
2E2
102
}
330
2E2
100
AcDbXrecord
 10
0.0
 20
0.0
 30
0.0
  0
XRECORD
  5
2F5
102
{ACAD_REACTORS
330
2E2
102
}
330
2E2
100
AcDbXrecord
 10
0.0
 20
0.0
 30
0.0
  0
XRECORD
  5
2F6
102
{ACAD_REACTORS
330
2E2
102
}
330
2E2
100
AcDbXrecord
 10
0.0
 20
0.0
 30
0.0
  0
XRECORD
  5
2F3
102
{ACAD_REACTORS
330
2E2
102
}
330
2E2
100
AcDbXrecord
 10
0.0
 20
0.0
 30
0.0
  0
XRECORD
  5
2F0
102
{ACAD_REACTORS
330
2E2
102
}
330
2E2
100
AcDbXrecord
340
0
  0
XRECORD
  5
2F1
102
{ACAD_REACTORS
330
2E2
102
}
330
2E2
100
AcDbXrecord
 70
     0
  0
XRECORD
  5
2E6
102
{ACAD_REACTORS
330
2E2
102
}
330
2E2
100
AcDbXrecord
  1

  0
XRECORD
  5
2E3
102
{ACAD_REACTORS
330
2E2
102
}
330
2E2
100
AcDbXrecord
 90
        1
  0
XRECORD
  5
2E4
102
{ACAD_REACTORS
330
2E2
102
}
330
2E2
100
AcDbXrecord
 90
       70
  0
XRECORD
  5
2FB
102
{ACAD_REACTORS
330
2E2
102
}
330
2E2
100
AcDbXrecord
340
0
  0
XRECORD
  5
301
102
{ACAD_REACTORS
330
2E2
102
}
330
2E2
100
AcDbXrecord
 10
0.0
 20
0.0
 30
0.0
  0
XRECORD
  5
2FD
102
{ACAD_REACTORS
330
2E2
102
}
330
2E2
100
AcDbXrecord
 10
0.0
 20
0.0
 30
0.0
  0
XRECORD
  5
300
102
{ACAD_REACTORS
330
2E2
102
}
330
2E2
100
AcDbXrecord
 10
0.0
 20
0.0
 30
0.0
  0
XRECORD
  5
2FE
102
{ACAD_REACTORS
330
2E2
102
}
330
2E2
100
AcDbXrecord
 10
0.0
 20
0.0
 30
0.0
  0
XRECORD
  5
2FF
102
{ACAD_REACTORS
330
2E2
102
}
330
2E2
100
AcDbXrecord
 10
0.0
 20
0.0
 30
0.0
  0
XRECORD
  5
2FC
102
{ACAD_REACTORS
330
2E2
102
}
330
2E2
100
AcDbXrecord
 10
0.0
 20
0.0
 30
0.0
  0
XRECORD
  5
2F9
102
{ACAD_REACTORS
330
2E2
102
}
330
2E2
100
AcDbXrecord
340
0
  0
XRECORD
  5
2FA
102
{ACAD_REACTORS
330
2E2
102
}
330
2E2
100
AcDbXrecord
 70
     0
  0
XRECORD
  5
2EE
102
{ACAD_REACTORS
330
2E2
102
}
330
2E2
100
AcDbXrecord
  1
{B563D7C3-BDCF-4E34-9549-25F02745C16E}
  0
ENDSEC
  0
EOF
